message
Windows 11 Pro Retail Keys at $4.99 USD Only
Get Your Windows 11 activated at $4.99 only

18+ After Porn Ends 3 2018 UNCENSORED Movies HDRip x264 AAC with Sample ☻rDX☻

Likes 0 Dislikes 0
Seeders 3
Leechers 1
File Size 740 MB
Downloads 40
Uploaded Nov 1, 2018
Files
Trackers
More Info
Folder18+ After Porn Ends 3 2018 UNCENSORED Movies HDRip x264 AAC with Sample ☻rDX☻
FileSample ~ 18+ After Porn Ends 3 2018 UNCENSORED Movies HDRip x264 AAC ☻rDX☻.mkv - 12.6 MB
File18+ After Porn Ends 3 2018 UNCENSORED Movies HDRip x264 AAC ☻rDX☻.mkv - 727 MB
Tracker Seeder Leecher
udp://tracker.bitsearch.to:1337/announce 0 0
udp://tracker.opentrackr.org:1337/announce 3 1
udp://ipv4.tracker.harry.lu:80/announce 0 0
udp://tracker.moeking.me:6969/announce 0 0
udp://tracker.openbittorrent.com:80/announce 0 0
udp://tracker.torrent.eu.org:451/announce 0 0
udp://open.stealth.si:80/announce 0 0
udp://tracker4.itzmx.com:2710/announce 0 0
udp://retracker.lanta-net.ru:2710/announce 0 0
udp://tracker.tiny-vps.com:6969/announce 0 0
udp://exodus.desync.com:6969/announce 0 0
udp://explodie.org:6969/announce 0 0
udp://tracker.internetwarriors.net:1337/announce 2 0
  • InfoHash: 2B54BD775A68FAD0CA1739AF004A70890356D180
  • Last Updated: Jan 24, 2022
  • File Count: 2
  • File Category: 10
  • Tags: XXX, Video
This Torrent is seen on

18+ After Porn Ends 3 2018 UNCENSORED Movies HDRip x264 AAC with Sample ☻rDX☻

Source: 1337x

Uploaded By: nehalpuja

18+ After Porn Ends 3 2018 UNCENSORED Movies HDRip x264 AAC with Sample ☻rDX☻
===============================================================================================

SCREEN SHOTS:





or

https://iphonehosting.eu/2018/11/iphone8/1.html


File size : 694 MiB
Duration : 1 h 26 min
Overall bit rate mode : Constant
Overall bit rate : 1 116 kb/s
Movie name : 18+ After Porn Ends 3 2018 UNCENSORED Movies HDRip x264 AAC ☻rDX☻

Video
ID : 2
Format : AVC
Format/Info : Advanced Video Codec
Format profile : [email protected]
Format settings, CABAC : Yes
Format settings, ReFrames : 2 frames
Format settings, GOP : M=1, N=12
Codec ID : V_MPEG4/ISO/AVC
Duration : 1 h 26 min
Bit rate mode : Constant
Bit rate : 1 053 kb/s
Width : 700 pixels
Height : 394 pixels
Display aspect ratio : 16:9
Frame rate mode : Constant
Frame rate : 23.976 (24000/1001) FPS
Color space : YUV
Chroma subsampling : 4:2:0
Bit depth : 8 bits
Scan type : Progressive
Bits/(Pixel*Frame) : 0.159
Stream size : 640 MiB (92%)
Title : ☻rDX☻
Default : Yes
Forced : No

Audio
ID : 1
Format : MPEG Audio
Format version : Version 1
Format profile : Layer 3
Mode : Joint stereo
Mode extension : MS Stereo
Codec ID : A_MPEG/L3
Codec ID/Hint : MP3
Duration : 1 h 26 min
Bit rate mode : Constant
Bit rate : 64.0 kb/s
Channel(s) : 2 channels
Sampling rate : 44.1 kHz
Compression mode : Lossy
Stream size : 39.8 MiB (6%)
Title : ☻rDX☻
Default : Yes
Forced : No

https://www.imdb.com/title/tt7681970


Comments (0)
 

Write your comment

Did you like this torrent? [Optional]