message
Download Our Android APP
Download our Android app and stream Torrents and Anime Ad-free

18+ Indian Hot Girls Sex Hindi XXX Porn Movies WEB-DL x264 with Sample ☻rDX☻

Likes 0 Dislikes 0
Seeders 14
Leechers 2
File Size 740 MB
Downloads 348
Uploaded Dec 12, 2018
Files
Trackers
More Info
Folder18+ Indian Hot Girls Sex Hindi XXX Porn Movies WEB-DL x264 with Sample ☻rDX☻
FileSample ~ 18+ Indian Hot Girls Sex Hindi XXX Porn Movies WEB-DL x264 ☻rDX☻.mkv - 12.6 MB
File18+ Indian Hot Girls Sex Hindi XXX Porn Movies WEB-DL x264 ☻rDX☻.mkv - 728 MB
Tracker Seeder Leecher
udp://tracker.bitsearch.to:1337/announce 0 0
udp://tracker.opentrackr.org:1337/announce 14 2
udp://ipv4.tracker.harry.lu:80/announce 1 0
udp://tracker.moeking.me:6969/announce 0 0
udp://tracker.openbittorrent.com:80/announce 3 0
udp://tracker.torrent.eu.org:451/announce 2 0
udp://open.stealth.si:80/announce 3 0
udp://tracker4.itzmx.com:2710/announce 0 0
udp://retracker.lanta-net.ru:2710/announce 2 0
udp://tracker.tiny-vps.com:6969/announce 3 0
udp://exodus.desync.com:6969/announce 4 0
udp://explodie.org:6969/announce 0 0
udp://tracker.internetwarriors.net:1337/announce 4 0
  • InfoHash: B5810906F7BF8A12CDC42431D18AAD469DDABFD1
  • Last Updated: Jan 24, 2022
  • File Count: 2
  • File Category: 10
  • Tags: XXX, Video
This Torrent is seen on

Indian Hot Girls Sex Hindi XXX Full Porn Movies WEB-DL x264 with Sample ☻rDX☻

Source: 1337x

Uploaded By: nehalpuja

18+ Indian Hot Girls Sex Hindi XXX Full Porn Movies WEB-DL x264 with Sample ☻rDX☻
===============================================================================================

SCREEN SHOTS:





or

https://iphonehosting.eu/2018/11/b/acerlaptops/1.html


File size : 694 MiB
Duration : 1 h 6 min
Overall bit rate mode : Constant
Overall bit rate : 1 463 kb/s
Movie name : 18+ Indian Hot Girls Sex Hindi XXX Porn Movies WEB-DL x264 ☻rDX☻

Video
ID : 2
Format : MPEG Video
Format version : Version 1
Format settings, BVOP : Yes
Format settings, Matrix : Default
Format settings, GOP : M=3, N=12
Codec ID : V_MPEG1
Codec ID/Info : MPEG 1 or 2 Video
Duration : 1 h 6 min
Bit rate mode : Constant
Bit rate : 1 210 kb/s
Maximum bit rate : 1 152 kb/s
Width : 352 pixels
Height : 288 pixels
Display aspect ratio : 1.222
Original display aspect ratio : 4:3
Frame rate mode : Constant
Frame rate : 25.000 FPS
Standard : PAL
Color space : YUV
Chroma subsampling : 4:2:0
Bit depth : 8 bits
Scan type : Progressive
Compression mode : Lossy
Bits/(Pixel*Frame) : 0.477
GOP, Open/Closed : Open
GOP, Open/Closed of first frame : Closed
Stream size : 574 MiB (83%)
Title : ☻rDX☻
Default : Yes
Forced : No

Audio
ID : 1
Format : MPEG Audio
Format version : Version 1
Format profile : Layer 2
Codec ID : A_MPEG/L2
Codec ID/Hint : MP2
Duration : 1 h 6 min
Bit rate mode : Constant
Bit rate : 224 kb/s
Channel(s) : 2 channels
Sampling rate : 48.0 kHz
Compression mode : Lossy
Stream size : 106 MiB (15%)
Title : ☻rDX☻
Default : Yes
Forced : No


Comments (0)
 

Write your comment

Did you like this torrent? [Optional]