message
Windows 11 Pro Retail Keys at $4.99 USD Only
Get Your Windows 11 activated at $4.99 only

The Prodigy 2019 Movies HDCam x264 Clean Audio New Source with Sample ☻rDX☻

Likes 0 Dislikes 0
Seeders 1
Leechers 0
File Size 742 MB
Downloads 7
Uploaded Feb 23, 2019
Files
Trackers
More Info
FolderThe Prodigy 2019 Movies HDCam x264 Clean Audio New Source with Sample ☻rDX☻
FileSample ~ The Prodigy 2019 Movies HDCam x264 Clean Audio New Source ☻rDX☻.mkv - 7.36 MB
FileThe Prodigy 2019 Movies HDCam x264 Clean Audio New Source ☻rDX☻.mkv - 734 MB
Tracker Seeder Leecher
udp://tracker.bitsearch.to:1337/announce 0 0
udp://tracker.opentrackr.org:1337/announce 1 0
udp://tracker.moeking.me:6969/announce 0 0
udp://tracker.uw0.xyz:6969/announce 0 0
udp://ipv4.tracker.harry.lu:80/announce 0 0
udp://open.stealth.si:80/announce 0 0
udp://tracker.openbittorrent.com:80/announce 0 0
udp://tracker.torrent.eu.org:451/announce 0 0
udp://tracker4.itzmx.com:2710/announce 0 0
udp://retracker.lanta-net.ru:2710/announce 0 0
udp://exodus.desync.com:6969/announce 0 0
udp://explodie.org:6969/announce 0 0
  • InfoHash: 569BCBB42A6E6FE853CC405BF228DE1797686C62
  • Last Updated: Jan 25, 2022
  • File Count: 2
  • File Category: 2
  • Tags: Movies, h.264/x264
Movie Information

The Prodigy

Movie
In her much-anticipated foray into the horror-thriller genre, Golden Globe and Emmy nominee Taylor Schilling stars in THE PRODIGY as Sarah, a mother whose young son Miles' disturbing behavior signals that an evil, possibly supernatural force has overtaken him. Fearing for her family's safety, Sarah must choose between her maternal instinct to love and protect Miles and a desperate need to investigate what or who is causing his dark turn. She is forced to look for answers in the past, taking the audience on a wild ride; one where the line between perception and reality becomes frighteningly blurry.
Rating: Rating: 5.8/10
time Duration: 92 Minutes
Calender Release Date: Feb 7, 2019
Country: USA, Canada
This Torrent is seen on

The Prodigy 2019 Movies HDCam x264 Clean Audio New Source with Sample ☻rDX☻

Source: 1337x

Uploaded By: nehalpuja

The Prodigy 2019 Movies HDCam x264 Clean Audio New Source with Sample ☻rDX☻
===============================================================================================

SCREEN SHOTS:



or

https://iphonehosting.eu/19/bankloan/premium/1.html

File size : 700 MiB
Duration : 1 h 23 min
Overall bit rate : 1 170 kb/s
Movie name : The Prodigy 2019 Movies HDCam x264 Clean Audio New Source ☻rDX☻

Video
ID : 2
Format : AVC
Format/Info : Advanced Video Codec
Format profile : [email protected]
Format settings, CABAC : Yes
Format settings, ReFrames : 2 frames
Codec ID : V_MPEG4/ISO/AVC
Duration : 1 h 23 min
Bit rate : 1 083 kb/s
Width : 720 pixels
Height : 280 pixels
Display aspect ratio : 2.571
Frame rate mode : Constant
Frame rate : 29.970 (30000/1001) FPS
Color space : YUV
Chroma subsampling : 4:2:0
Bit depth : 8 bits
Scan type : Progressive
Bits/(Pixel*Frame) : 0.179
Stream size : 648 MiB (93%)
Title : ☻rDX☻
Default : Yes
Forced : No

Audio
ID : 1
Format : AC-3
Format/Info : Audio Coding 3
Mode extension : CM (complete main)
Format settings, Endianness : Big
Codec ID : A_AC3
Duration : 1 h 23 min
Bit rate mode : Constant
Bit rate : 64.0 kb/s
Channel(s) : 2 channels
Channel positions : Front: L R
Sampling rate : 44.1 kHz
Frame rate : 28.711 FPS (1536 spf)
Bit depth : 16 bits
Compression mode : Lossy
Stream size : 38.3 MiB (5%)
Title : ☻rDX☻
Default : Yes
Forced : No

https://www.imdb.com/title/tt4504044

Comments (0)
 

Write your comment

Did you like this torrent? [Optional]