message

The Tommorow War 2021 720p 10bit AMZN WEBRip English Hindi 5.1 x265 - mkvAnime [Telly].mkv

Likes 1 Dislikes 0
Seeders 16
Leechers 3
File Size 1.24 GB
Downloads 11653
Uploaded Jul 3, 2021
Files
Trackers
More Info
FileThe Tommorow War 2021 720p 10bit AMZN WEBRip English Hindi 5.1 x265 - mkvAnime [Telly].mkv - 1.24 GB
Tracker Seeder Leecher
udp://tracker.bitsearch.to:1337/announce 0 0
udp://tracker.opentrackr.org:1337/announce 15 2
udp://tracker.moeking.me:6969/announce 0 0
udp://tracker.torrent.eu.org:451/announce 11 0
udp://tracker.openbittorrent.com:80/announce 11 1
udp://open.stealth.si:80/announce 16 3
udp://p4p.arenabg.com:1337/announce 0 0
udp://tracker4.itzmx.com:2710/announce 0 0
udp://tracker.tiny-vps.com:6969/announce 6 1
udp://exodus.desync.com:6969/announce 0 0
udp://tracker.internetwarriors.net:1337/announce 12 1
  • InfoHash: DCD61462F559875941CB0CFC547ED7AAE8EA4FEB
  • Last Updated: Jan 25, 2022
  • File Count: 1
  • File Category: 2
  • Tags: Movies, Dubs/Dual Audio
This Torrent is seen on

The Tommorow War 2021 720p 10bit AMZN WEBRip English Hindi 5.1 x265 - mkvAnime [Telly]

Source: 1337x

Uploaded By: movieslover



General
Unique ID                                : 295997767851531619491619639771412450461 (0xDEAF18B173BECEB662CD04AE146A4C9D)
Complete name                            : D:\Encode\The Tommorow War 2021 720p 10bit AMZN WEBRip English Hindi 5.1 x265 - mkvAnime [Telly].mkv
Format                                   : Matroska
Format version                           : Version 4
File size                                : 1.16 GiB
Duration                                 : 2 h 18 min
Overall bit rate                         : 1 201 kb/s
Movie name                               : mkvAnime - Telly / Encoded By: mkvAnime
Encoded date                             : UTC 2021-07-02 06:09:30
Writing application                      : mkvmerge v39.0.0 ('In The Waiting Line') 64-bit
Writing library                          : libebml v1.3.9 + libmatroska v1.5.2
Video
ID                                       : 1
Format                                   : HEVC
Format/Info                              : High Efficiency Video Coding
Format profile                           : Main [email protected]@Main
Codec ID                                 : V_MPEGH/ISO/HEVC
Duration                                 : 2 h 18 min
Bit rate                                 : 814 kb/s
Width                                    : 1 280 pixels
Height                                   : 536 pixels
Display aspect ratio                     : 2.40:1
Frame rate mode                          : Constant
Frame rate                               : 23.976 (24000/1001) FPS
Color space                              : YUV
Chroma subsampling                       : 4:2:0
Bit depth                                : 10 bits
Bits/(Pixel*Frame)                       : 0.049
Stream size                              : 804 MiB (68%)
Title                                    : mkvAnime - Telly
Default                                  : Yes
Forced                                   : No
Color range                              : Limited
Color primaries                          : BT.709
Transfer characteristics                 : BT.709
Matrix coefficients                      : BT.709
Audio #1
ID                                       : 2
Format                                   : AAC LC
Format/Info                              : Advanced Audio Codec Low Complexity
Codec ID                                 : A_AAC-2
Duration                                 : 2 h 18 min
Bit rate                                 : 192 kb/s
Channel(s)                               : 2 channels
Channel layout                           : L R
Sampling rate                            : 48.0 kHz
Frame rate                               : 46.875 FPS (1024 SPF)
Compression mode                         : Lossy
Stream size                              : 190 MiB (16%)
Title                                    : English
Language                                 : English
Default                                  : No
Forced                                   : No
Audio #2
ID                                       : 3
Format                                   : AAC LC
Format/Info                              : Advanced Audio Codec Low Complexity
Codec ID                                 : A_AAC-2
Duration                                 : 2 h 18 min
Bit rate                                 : 192 kb/s
Channel(s)                               : 6 channels
Channel layout                           : L R C Cb Lb Rb
Sampling rate                            : 48.0 kHz
Frame rate                               : 46.875 FPS (1024 SPF)
Compression mode                         : Lossy
Stream size                              : 190 MiB (16%)
Title                                    : Hindi
Language                                 : Hindi
Default                                  : No
Forced                                   : No
Text #1
ID                                       : 4
Format                                   : UTF-8
Codec ID                                 : S_TEXT/UTF8
Codec ID/Info                            : UTF-8 Plain Text
Duration                                 : 2 h 17 min
Bit rate                                 : 61 b/s
Count of elements                        : 2195
Stream size                              : 61.9 KiB (0%)
Title                                    : English [SDH]
Language                                 : English
Default                                  : No
Forced                                   : No
Text #2
ID                                       : 5
Format                                   : UTF-8
Codec ID                                 : S_TEXT/UTF8
Codec ID/Info                            : UTF-8 Plain Text
Duration                                 : 2 h 8 min
Bit rate                                 : 58 b/s
Count of elements                        : 1853
Stream size                              : 55.2 KiB (0%)
Title                                    : English
Language                                 : English
Default                                  : No
Forced                                   : No


Comments (0)
 

Write your comment

Did you like this torrent? [Optional]