message
Windows 11 Pro Retail Keys at $4.99 USD Only
Get Your Windows 11 activated at $4.99 only

Total Dhamaal 2019 Hindi Movies PDVDRip x264 Clean Audio New Source with Sample ☻rDX☻

Likes 0 Dislikes 0
Seeders 9
Leechers 10
File Size 747 MB
Downloads 1042
Uploaded Feb 24, 2019
Files
Trackers
More Info
FolderTotal Dhamaal 2019 Hindi Movies PDVDRip x264 Clean Audio New Source with Sample ☻rDX☻
FileSample ~ Total Dhamaal 2019 Hindi Movies PDVDRip x264 Clean Audio New Source ☻rDX☻.mkv - 4.23 MB
FileTotal Dhamaal 2019 Hindi Movies PDVDRip x264 Clean Audio New Source ☻rDX☻.mkv - 743 MB
Tracker Seeder Leecher
udp://tracker.bitsearch.to:1337/announce 0 0
udp://tracker.moeking.me:6969/announce 0 3
udp://tracker.opentrackr.org:1337/announce 9 7
udp://tracker.uw0.xyz:6969/announce 0 4
udp://tracker.openbittorrent.com:80/announce 2 5
udp://tracker.torrent.eu.org:451/announce 1 10
udp://open.stealth.si:80/announce 0 1
udp://tracker4.itzmx.com:2710/announce 0 0
udp://retracker.lanta-net.ru:2710/announce 0 2
udp://tracker.tiny-vps.com:6969/announce 0 2
udp://exodus.desync.com:6969/announce 1 2
udp://explodie.org:6969/announce 0 5
  • InfoHash: 5C7F5419D40DDE87D39F604E7A09FE49C38586A1
  • Last Updated: Jan 25, 2022
  • File Count: 2
  • File Category: 2
  • Tags: Movies, Bollywood
Movie Information

Total Dhamaal

Movie
Total Dhamaal is the third instalment in the Dhamaal franchise. A hidden booty of 50 crore leads to a mad chase amongst a bunch of greedy and eccentric characters. In them, are a bickering couple on the verge of a divorce, greedy siblings, local goons, a police commissioner and the mastermind of the loot. Will they finally discover the hidden treasure?
Rating: Rating: 4.2/10
time Duration: 130 Minutes
Calender Release Date: Feb 22, 2019
Country: India
This Torrent is seen on

Total Dhamaal 2019 Hindi Movies PDVDRip x264 Clean Audio New Source with Sample ☻rDX☻

Source: 1337x

Uploaded By: nehalpuja

Total Dhamaal 2019 Hindi Movies PDVDRip x264 Clean Audio New Source with Sample ☻rDX☻
===============================================================================================

SCREEN SHOTS:



or

https://iphonehosting.eu/19/bankloan/owner/1.html

File size : 709 MiB
Duration : 2 h 3 min
Overall bit rate : 800 kb/s
Movie name : Total Dhamaal 2019 Hindi Movies PDVDRip x264 Clean Audio New Source ☻rDX☻

Video
ID : 2
Format : AVC
Format/Info : Advanced Video Codec
Format profile : [email protected]
Format settings, CABAC : Yes
Format settings, ReFrames : 2 frames
Format settings, GOP : M=1, N=12
Codec ID : V_MPEG4/ISO/AVC
Duration : 2 h 3 min
Bit rate : 720 kb/s
Width : 700 pixels
Height : 280 pixels
Display aspect ratio : 2.500
Frame rate mode : Constant
Frame rate : 25.000 FPS
Color space : YUV
Chroma subsampling : 4:2:0
Bit depth : 8 bits
Scan type : Progressive
Bits/(Pixel*Frame) : 0.147
Stream size : 638 MiB (90%)
Title : ☻rDX☻
Default : Yes
Forced : No

Audio
ID : 1
Format : AC-3
Format/Info : Audio Coding 3
Mode extension : CM (complete main)
Format settings, Endianness : Big
Codec ID : A_AC3
Duration : 2 h 3 min
Bit rate mode : Constant
Bit rate : 64.0 kb/s
Channel(s) : 2 channels
Channel positions : Front: L R
Sampling rate : 44.1 kHz
Frame rate : 28.711 FPS (1536 spf)
Bit depth : 16 bits
Compression mode : Lossy
Stream size : 56.7 MiB (8%)
Title : ☻rDX☻
Default : Yes
Forced : No

https://www.imdb.com/title/tt7639372

Comments (0)
 

Write your comment

Did you like this torrent? [Optional]