message
Download Our Android APP
Download our Android app and stream Torrents and Anime Ad-free

Venom.Let.There.Be.Carnage.2021.1080p.BluRay.x264.DTS-HD.MA.5.1-MT

Likes 0 Dislikes 0
Seeders 17
Leechers 16
File Size 9.6 GB
Downloads 1969
Uploaded Dec 3, 2021
Files
Trackers
More Info
FolderVenom.Let.There.Be.Carnage.2021.1080p.BluRay.x264.DTS-HD.MA.5.1-MT
FileVenom.Let.There.Be.Carnage.2021.1080p.BluRay.x264.DTS-HD.MA.5.1-MT.mkv - 9.6 GB
FileRARBG.txt - 31 B
Tracker Seeder Leecher
udp://tracker.bitsearch.to:1337/announce 1 0
udp://tracker.breizh.pm:6969/announce 0 0
udp://tracker.torrent.eu.org:451/announce 2 0
udp://www.torrent.eu.org:451/announce 2 0
udp://9.rarbg.com:2920/announce 15 1
udp://tracker.0x.tf:6969/announce 1 0
udp://tracker.opentrackr.org:1337/announce 3 3
udp://fe.dealclub.de:6969/announce 1 0
udp://tracker.monitorit4.me:6969/announce 1 0
udp://open.stealth.si:80/announce 2 0
udp://p4p.arenabg.com:1337/announce 1 0
udp://tracker.leech.ie:1337/announce 1 0
udp://mts.tvbit.co:6969/announce 1 0
udp://tracker.moeking.me:6969/announce 2 0
udp://vibe.sleepyinternetfun.xyz:1738/announce 1 0
udp://opentracker.i2p.rocks:6969/announce 1 2
udp://movies.zsw.ca:6969/announce 1 0
udp://bubu.mapfactor.com:6969/announce 1 0
udp://tracker.theoks.net:6969/announce 1 0
udp://bt2.archive.org:6969/announce 1 0
udp://bt1.archive.org:6969/announce 0 0
udp://exodus.desync.com:6969/announce 2 0
udp://tracker1.bt.moack.co.kr:80/announce 1 0
udp://explodie.org:6969/announce 1 0
  • InfoHash: F8E0FE148739F5F1167CF5CFD52C174CEFE746A3
  • Last Updated: May 19, 2022
  • File Count: 2
  • File Category: 2
  • Tags: RARBG, MOVIE, Movies, HD
Movie Information

Venom: Let There Be Carnage

Movie
Plot unknown. Sequel to the 2018 film 'Venom'.
Rating: Rating: 6/10
time Duration: Minutes
Calender Release Date: Sep 23, 2021
Country: United States
This Torrent is seen on

Venom.Let.There.Be.Carnage.2021.1080p.BluRay.x264.DTS-HD.MA.5.1-MT

Source: 1337x

Uploaded By: TheMorozko

Screens... (click to enlarge):






Infolink -> https://www.imdb.com/title/tt7097896/

Mediainfo

Quote:
Video
ID : 1
Format : AVC
Format/Info : Advanced Video Codec
Format profile : [email protected]
Format settings : CABAC / 4 Ref Frames
Format settings, CABAC : Yes
Format settings, Reference frames : 4 frames
Codec ID : V_MPEG4/ISO/AVC
Duration : 1 h 37 min
Bit rate : 10.8 Mb/s
Width : 1 920 pixels
Height : 1 038 pixels
Display aspect ratio : 1.85:1
Frame rate mode : Constant
Frame rate : 23.976 (24000/1001) FPS
Color space : YUV
Chroma subsampling : 4:2:0
Bit depth : 8 bits
Scan type : Progressive
Bits/(Pixel*Frame) : 0.227
Stream size : 7.36 GiB (82%)
Writing library : x264 core 157 r2938 2b00a84 [email protected] Mod
Encoding settings : cabac=1 / ref=4 / deblock=1:-3:-3 / analyse=0x3:0x133 / me=umh / subme=10 / psy=1 / psy_rd=1.05:0.00 / mixed_ref=1 / me_range=32 / chroma_me=1 / trellis=2 / 8x8dct=1 / cqm=0 / deadzone=21,11 / fast_pskip=0 / chroma_qp_offset=-2 / threads=12 / lookahead_threads=2 / sliced_threads=0 / nr=0 / decimate=0 / interlaced=0 / bluray_compat=0 / constrained_intra=0 / bframes=8 / b_pyramid=2 / b_adapt=2 / b_bias=0 / direct=3 / weightb=1 / open_gop=0 / weightp=2 / keyint=250 / keyint_min=24 / scenecut=40 / intra_refresh=0 / rc_lookahead=250 / rc=crf / mbtree=0 / crf=16.8 / qcomp=0.60 / qpmin=0 / qpmax=69 / qpstep=4 / vbv_maxrate=62500 / vbv_bufsize=78125 / crf_max=0.0 / nal_hrd=none / filler=0 / ip_ratio=1.30 / pb_ratio=1.20 / aq=3:0.80
Language : English
Default : Yes
Forced : No
Color range : Limited
Color primaries : BT.709
Matrix coefficients : BT.709

Audio
ID : 2
Format : DTS XLL
Format/Info : Digital Theater Systems
Commercial name : DTS-HD Master Audio
Codec ID : A_DTS
Duration : 1 h 37 min
Bit rate mode : Variable
Bit rate : 2 330 kb/s
Channel(s) : 6 channels
Channel layout : C L R Ls Rs LFE
Sampling rate : 48.0 kHz
Frame rate : 93.750 FPS (512 SPF)
Bit depth : 16 bits
Compression mode : Lossless
Stream size : 1.58 GiB (18%)
Language : English
Default : Yes
Forced : No

Text
ID : 3
Format : UTF-8
Codec ID : S_TEXT/UTF8
Codec ID/Info : UTF-8 Plain Text
Duration : 1 h 35 min
Bit rate : 60 b/s
Count of elements : 1495
Stream size : 42.3 KiB (0%)
Language : English
Default : Yes
Forced : No

Menu
00:00:00.000 : en:Chapter 01
00:05:24.991 : en:Chapter 02
00:09:33.239 : en:Chapter 03
00:12:20.406 : en:Chapter 04
00:18:23.436 : en:Chapter 05
00:23:01.213 : en:Chapter 06
00:30:17.858 : en:Chapter 07
00:35:03.601 : en:Chapter 08
00:39:26.781 : en:Chapter 09
00:45:35.066 : en:Chapter 10
00:50:40.329 : en:Chapter 11
00:55:29.826 : en:Chapter 12
01:01:01.032 : en:Chapter 13
01:06:57.639 : en:Chapter 14
01:14:36.681 : en:Chapter 15
01:21:57.579 : en:Chapter 16

Comments (0)
 

Write your comment

Did you like this torrent? [Optional]