message
Windows 11 Pro Retail Keys at $4.99 USD Only
Get Your Windows 11 activated at $4.99 only

Shadow And Bone S01 1080p NF WEBrip x265 DDP5.1 Atmos D0ct0rLew[SEV]

Likes 1 Dislikes 0
Seeders 9
Leechers 11
File Size 18.9 GB
Downloads 279
Uploaded Aug 2, 2021
Files
Trackers
More Info
FolderShadow And Bone S01 1080p NF WEBrip x265 DDP5.1 Atmos D0ct0rLew[SEV]
FileContact SEV.txt - 1.06 kB
FileShadow And Bone S01E01 A Searing Burst of Light 1080p NF WEBrip x265 DDP5.1 D0ct0rLew[SEV].mkv - 2.23 GB
FileShadow And Bone S01E02 We're All Someone's Monster 1080p NF WEBrip x265 DDP5.1 D0ct0rLew[SEV].mkv - 2.28 GB
FileShadow And Bone S01E03 The Making at the Heart of the World 1080p NF WEBrip x265 DDP5.1 D0ct0rLew[SEV].mkv - 2.24 GB
FileShadow And Bone S01E04 Otkazat'sya 1080p NF WEBrip x265 DDP5.1 D0ct0rLew[SEV].mkv - 2.1 GB
FileShadow And Bone S01E05 Show Me Who You Are 1080p NF WEBrip x265 DDP5.1 D0ct0rLew[SEV].mkv - 2.82 GB
FileShadow And Bone S01E06 The Heart Is an Arrow 1080p NF WEBrip x265 DDP5.1 D0ct0rLew[SEV].mkv - 2.69 GB
FileShadow And Bone S01E07 The Unsea 1080p NF WEBrip x265 DDP5.1 D0ct0rLew[SEV].mkv - 2.46 GB
FileShadow And Bone S01E08 No Mourners 1080p NF WEBrip x265 DDP5.1 D0ct0rLew[SEV].mkv - 2.04 GB
Tracker Seeder Leecher
udp://tracker.bitsearch.to:1337/announce 0 0
udp://9.rarbg.com:2920/announce 2 0
udp://tracker.0x.tf:6969/announce 0 0
udp://tracker.opentrackr.org:1337/announce 7 2
udp://www.torrent.eu.org:451/announce 7 1
udp://fe.dealclub.de:6969/announce 7 0
udp://app.icon256.com:8000/announce 0 0
udp://tracker.moeking.me:6969/announce 4 0
udp://tracker.monitorit4.me:6969/announce 0 0
udp://open.stealth.si:80/announce 8 1
udp://tracker.leech.ie:1337/announce 0 0
udp://p4p.arenabg.com:1337/announce 0 0
udp://mts.tvbit.co:6969/announce 0 0
udp://movies.zsw.ca:6969/announce 0 0
udp://opentracker.i2p.rocks:6969/announce 7 0
udp://vibe.sleepyinternetfun.xyz:1738/announce 0 0
udp://bubu.mapfactor.com:6969/announce 0 0
udp://exodus.desync.com:6969/announce 5 0
udp://tracker.blacksparrowmedia.net:6969/announce 0 0
udp://tracker.theoks.net:6969/announce 0 0
udp://explodie.org:6969/announce 3 0
udp://tracker.army:6969/announce 0 0
udp://bt1.archive.org:6969/announce 0 0
udp://tracker1.bt.moack.co.kr:80/announce 0 0
  • InfoHash: BEEC6C88043E931F3C73B47714D82B2A6FC6146D
  • Last Updated: Sep 16, 2022
  • File Count: 9
  • File Category: 3
  • Tags: Drama, Adventure, Action, 10bit, TV, HEVC/x265
This Torrent is seen on

Shadow And Bone S01 1080p NF WEBrip x265 DDP5.1 Atmos D0ct0rLew[SEV]

Source: 1337x

Uploaded By: D0ct0rLew




Media Information



Unique ID : 275097259682939239459294876282861267941 (0xCEF5CE14C1C101024213CB1B0F4E2BE5)
Complete name : Shadow And Bone S01E08 No Mourners 1080p NF WEBrip x265 DDP5.1 D0ct0rLew[SEV].mkv
Format : Matroska
Format version : Version 4
File size : 1.90 GiB
Duration : 45 min 11 s
Overall bit rate : 6 019 kb/s
Movie name : Shadow And Bone S01E08 No Mourners 1080p NF WEBrip x265 DDP5.1 D0ct0rLew[SEV]
Encoded date : UTC 2021-07-19 22:14:55
Writing application : mkvmerge v56.1.0 ('My Friend') 64-bit
Writing library : libebml v1.4.2 + libmatroska v1.6.4

Video
ID : 1
Format : HEVC
Format/Info : High Efficiency Video Coding
Format profile : Main [email protected]@Main
Codec ID : V_MPEGH/ISO/HEVC
Duration : 45 min 11 s
Bit rate : 5 246 kb/s
Width : 1 920 pixels
Height : 872 pixels
Display aspect ratio : 2.2:1
Frame rate mode : Constant
Frame rate : 23.976 (24000/1001) FPS
Color space : YUV
Chroma subsampling : 4:2:0
Bit depth : 10 bits
Bits/(Pixel*Frame) : 0.131
Stream size : 1.66 GiB (87%)
Writing library : x265 3.5+10-82786fccc:[Windows][MSVC 1929][64 bit] 10bit
Encoding settings : cpuid=1111039 / frame-threads=3 / numa-pools=8 / wpp / no-pmode / no-pme / no-psnr / no-ssim / log-level=2 / input-csp=1 / input-res=1920x872 / interlace=0 / total-frames=1349 / level-idc=0 / high-tier=1 / uhd-bd=0 / ref=4 / no-allow-non-conformance / no-repeat-headers / annexb / no-aud / no-eob / no-eos / no-hrd / info / hash=0 / no-temporal-layers / open-gop / min-keyint=24 / keyint=240 / gop-lookahead=0 / bframes=16 / b-adapt=2 / b-pyramid / bframe-bias=0 / rc-lookahead=90 / lookahead-slices=4 / scenecut=40 / hist-scenecut=0 / radl=0 / no-splice / no-intra-refresh / ctu=64 / min-cu-size=8 / no-rect / no-amp / max-tu-size=32 / tu-inter-depth=4 / tu-intra-depth=4 / limit-tu=0 / rdoq-level=2 / dynamic-rd=0.00 / no-ssim-rd / signhide / no-tskip / nr-intra=0 / nr-inter=0 / no-constrained-intra / no-strong-intra-smoothing / max-merge=5 / limit-refs=0 / limit-modes / me=3 / subme=7 / merange=92 / temporal-mvp / no-frame-dup / no-hme / weightp / no-weightb / no-analyze-src-pics / deblock=0:0 / sao / no-sao-non-deblock / rd=4 / selective-sao=4 / no-early-skip / rskip / no-fast-intra / no-tskip-fast / no-cu-lossless / no-b-intra / no-splitrd-skip / rdpenalty=0 / psy-rd=1.50 / psy-rdoq=1.00 / no-rd-refine / no-lossless / cbqpoffs=0 / crqpoffs=0 / rc=crf / crf=15.2 / qcomp=0.60 / qpstep=4 / stats-write=0 / stats-read=0 / ipratio=1.40 / pbratio=1.30 / aq-mode=3 / aq-strength=1.00 / cutree / zone-count=0 / no-strict-cbr / qg-size=32 / no-rc-grain / qpmax=69 / qpmin=0 / no-const-vbv / sar=1 / overscan=0 / videoformat=5 / range=0 / colorprim=2 / transfer=2 / colormatrix=2 / chromaloc=0 / display-window=0 / cll=0,0 / min-luma=0 / max-luma=1023 / log2-max-poc-lsb=8 / vui-timing-info / vui-hrd-info / slices=1 / no-opt-qp-pps / no-opt-ref-list-length-pps / no-multi-pass-opt-rps / scenecut-bias=0.05 / hist-threshold=0.03 / no-opt-cu-delta-qp / no-aq-motion / no-hdr10 / no-hdr10-opt / no-dhdr10-opt / no-idr-recovery-sei / analysis-reuse-level=0 / analysis-save-reuse-level=0 / analysis-load-reuse-level=0 / scale-factor=0 / refine-intra=0 / refine-inter=0 / refine-mv=1 / refine-ctu-distortion=0 / no-limit-sao / ctu-info=0 / no-lowpass-dct / refine-analysis-type=0 / copy-pic=1 / max-ausize-factor=1.0 / no-dynamic-refine / no-single-sei / no-hevc-aq / no-svt / no-field / qp-adaptation-range=1.00 / scenecut-aware-qp=0conformance-window-offsets / right=0 / bottom=0 / decoder-max-rate=0 / no-vbv-live-multi-pass
Default : Yes
Forced : No

Audio
ID : 2
Format : E-AC-3 JOC
Format/Info : Enhanced AC-3 with Joint Object Coding
Commercial name : Dolby Digital Plus with Dolby Atmos
Codec ID : A_EAC3
Duration : 45 min 11 s
Bit rate mode : Constant
Bit rate : 768 kb/s
Channel(s) : 6 channels
Channel layout : L R C LFE Ls Rs
Sampling rate : 48.0 kHz
Frame rate : 31.250 FPS (1536 SPF)
Compression mode : Lossy
Stream size : 248 MiB (13%)
Language : English
Service kind : Complete Main
Default : Yes
Forced : No
Complexity index : 16
Number of dynamic objects : 15
Bed channel count : 1 channel
Bed channel configuration : LFE

Text #1
ID : 3
Format : UTF-8
Codec ID : S_TEXT/UTF8
Codec ID/Info : UTF-8 Plain Text
Duration : 38 min 59 s
Bit rate : 52 b/s
Count of elements : 521
Stream size : 14.9 KiB (0%)
Title : SDH
Language : English
Default : No
Forced : No

Text #2
ID : 4
Format : UTF-8
Codec ID : S_TEXT/UTF8
Codec ID/Info : UTF-8 Plain Text
Duration : 43 min 32 s
Bit rate : 64 b/s
Count of elements : 425
Stream size : 20.7 KiB (0%)
Language : Arabic
Default : No
Forced : No

Text #3
ID : 5
Format : UTF-8
Codec ID : S_TEXT/UTF8
Codec ID/Info : UTF-8 Plain Text
Duration : 43 min 32 s
Bit rate : 61 b/s
Count of elements : 425
Stream size : 19.6 KiB (0%)
Language : Bulgarian
Default : No
Forced : No

Text #4
ID : 6
Format : UTF-8
Codec ID : S_TEXT/UTF8
Codec ID/Info : UTF-8 Plain Text
Duration : 43 min 32 s
Bit rate : 35 b/s
Count of elements : 425
Stream size : 11.4 KiB (0%)
Language : Czech
Default : No
Forced : No

Text #5
ID : 7
Format : UTF-8
Codec ID : S_TEXT/UTF8
Codec ID/Info : UTF-8 Plain Text
Duration : 43 min 32 s
Bit rate : 36 b/s
Count of elements : 425
Stream size : 11.6 KiB (0%)
Language : Danish
Default : No
Forced : No

Text #6
ID : 8
Format : UTF-8
Codec ID : S_TEXT/UTF8
Codec ID/Info : UTF-8 Plain Text
Duration : 43 min 32 s
Bit rate : 35 b/s
Count of elements : 425
Stream size : 11.2 KiB (0%)
Language : German
Default : No
Forced : No

Text #7
ID : 9
Format : UTF-8
Codec ID : S_TEXT/UTF8
Codec ID/Info : UTF-8 Plain Text
Duration : 43 min 32 s
Bit rate : 66 b/s
Count of elements : 425
Stream size : 21.3 KiB (0%)
Language : Greek
Default : No
Forced : No

Text #8
ID : 10
Format : UTF-8
Codec ID : S_TEXT/UTF8
Codec ID/Info : UTF-8 Plain Text
Duration : 43 min 32 s
Bit rate : 38 b/s
Count of elements : 425
Stream size : 12.2 KiB (0%)
Title : Latin American
Language : Spanish
Default : No
Forced : No

Text #9
ID : 11
Format : UTF-8
Codec ID : S_TEXT/UTF8
Codec ID/Info : UTF-8 Plain Text
Duration : 43 min 32 s
Bit rate : 36 b/s
Count of elements : 425
Stream size : 11.7 KiB (0%)
Title : European
Language : Spanish
Default : No
Forced : No

Text #10
ID : 12
Format : UTF-8
Codec ID : S_TEXT/UTF8
Codec ID/Info : UTF-8 Plain Text
Duration : 43 min 32 s
Bit rate : 36 b/s
Count of elements : 425
Stream size : 11.6 KiB (0%)
Language : Finnish
Default : No
Forced : No

Text #11
ID : 13
Format : UTF-8
Codec ID : S_TEXT/UTF8
Codec ID/Info : UTF-8 Plain Text
Duration : 43 min 32 s
Bit rate : 37 b/s
Count of elements : 417
Stream size : 12.0 KiB (0%)
Language : French
Default : No
Forced : No

Text #12
ID : 14
Format : UTF-8
Codec ID : S_TEXT/UTF8
Codec ID/Info : UTF-8 Plain Text
Duration : 43 min 32 s
Bit rate : 58 b/s
Count of elements : 425
Stream size : 18.6 KiB (0%)
Language : Hebrew
Default : No
Forced : No

Text #13
ID : 15
Format : UTF-8
Codec ID : S_TEXT/UTF8
Codec ID/Info : UTF-8 Plain Text
Duration : 43 min 32 s
Bit rate : 35 b/s
Count of elements : 425
Stream size : 11.2 KiB (0%)
Language : Croatian
Default : No
Forced : No

Text #14
ID : 16
Format : UTF-8
Codec ID : S_TEXT/UTF8
Codec ID/Info : UTF-8 Plain Text
Duration : 43 min 32 s
Bit rate : 36 b/s
Count of elements : 425
Stream size : 11.6 KiB (0%)
Language : Hungarian
Default : No
Forced : No

Text #15
ID : 17
Format : UTF-8
Codec ID : S_TEXT/UTF8
Codec ID/Info : UTF-8 Plain Text
Duration : 43 min 32 s
Bit rate : 36 b/s
Count of elements : 425
Stream size : 11.8 KiB (0%)
Language : Indonesian
Default : No
Forced : No

Text #16
ID : 18
Format : UTF-8
Codec ID : S_TEXT/UTF8
Codec ID/Info : UTF-8 Plain Text
Duration : 43 min 32 s
Bit rate : 37 b/s
Count of elements : 425
Stream size : 12.1 KiB (0%)
Language : Italian
Default : No
Forced : No

Text #17
ID : 19
Format : UTF-8
Codec ID : S_TEXT/UTF8
Codec ID/Info : UTF-8 Plain Text
Duration : 43 min 32 s
Bit rate : 36 b/s
Count of elements : 392
Stream size : 11.6 KiB (0%)
Language : Japanese
Default : No
Forced : No

Text #18
ID : 20
Format : UTF-8
Codec ID : S_TEXT/UTF8
Codec ID/Info : UTF-8 Plain Text
Duration : 43 min 32 s
Bit rate : 52 b/s
Count of elements : 425
Stream size : 16.6 KiB (0%)
Language : Korean
Default : No
Forced : No

Text #19
ID : 21
Format : UTF-8
Codec ID : S_TEXT/UTF8
Codec ID/Info : UTF-8 Plain Text
Duration : 43 min 32 s
Bit rate : 38 b/s
Count of elements : 425
Stream size : 12.2 KiB (0%)
Language : Malay
Default : No
Forced : No

Text #20
ID : 22
Format : UTF-8
Codec ID : S_TEXT/UTF8
Codec ID/Info : UTF-8 Plain Text
Duration : 43 min 32 s
Bit rate : 36 b/s
Count of elements : 425
Stream size : 11.6 KiB (0%)
Language : Norwegian Bokmal
Default : No
Forced : No

Text #21
ID : 23
Format : UTF-8
Codec ID : S_TEXT/UTF8
Codec ID/Info : UTF-8 Plain Text
Duration : 43 min 32 s
Bit rate : 35 b/s
Count of elements : 400
Stream size : 11.3 KiB (0%)
Language : Dutch
Default : No
Forced : No

Text #22
ID : 24
Format : UTF-8
Codec ID : S_TEXT/UTF8
Codec ID/Info : UTF-8 Plain Text
Duration : 43 min 32 s
Bit rate : 35 b/s
Count of elements : 425
Stream size : 11.3 KiB (0%)
Language : Polish
Default : No
Forced : No

Text #23
ID : 25
Format : UTF-8
Codec ID : S_TEXT/UTF8
Codec ID/Info : UTF-8 Plain Text
Duration : 43 min 32 s
Bit rate : 36 b/s
Count of elements : 425
Stream size : 11.7 KiB (0%)
Title : European
Language : Portuguese
Default : No
Forced : No

Text #24
ID : 26
Format : UTF-8
Codec ID : S_TEXT/UTF8
Codec ID/Info : UTF-8 Plain Text
Duration : 43 min 32 s
Bit rate : 36 b/s
Count of elements : 425
Stream size : 11.6 KiB (0%)
Title : Brazilian
Language : Portuguese
Default : No
Forced : No

Text #25
ID : 27
Format : UTF-8
Codec ID : S_TEXT/UTF8
Codec ID/Info : UTF-8 Plain Text
Duration : 43 min 32 s
Bit rate : 42 b/s
Count of elements : 425
Stream size : 13.5 KiB (0%)
Language : Romanian
Default : No
Forced : No

Text #26
ID : 28
Format : UTF-8
Codec ID : S_TEXT/UTF8
Codec ID/Info : UTF-8 Plain Text
Duration : 43 min 32 s
Bit rate : 63 b/s
Count of elements : 425
Stream size : 20.3 KiB (0%)
Language : Russian
Default : No
Forced : No

Text #27
ID : 29
Format : UTF-8
Codec ID : S_TEXT/UTF8
Codec ID/Info : UTF-8 Plain Text
Duration : 43 min 32 s
Bit rate : 36 b/s
Count of elements : 425
Stream size : 11.7 KiB (0%)
Language : Swedish
Default : No
Forced : No

Text #28
ID : 30
Format : UTF-8
Codec ID : S_TEXT/UTF8
Codec ID/Info : UTF-8 Plain Text
Duration : 43 min 32 s
Bit rate : 105 b/s
Count of elements : 425
Stream size : 33.5 KiB (0%)
Language : Thai
Default : No
Forced : No

Text #29
ID : 31
Format : UTF-8
Codec ID : S_TEXT/UTF8
Codec ID/Info : UTF-8 Plain Text
Duration : 43 min 32 s
Bit rate : 38 b/s
Count of elements : 425
Stream size : 12.2 KiB (0%)
Language : Turkish
Default : No
Forced : No

Text #30
ID : 32
Format : UTF-8
Codec ID : S_TEXT/UTF8
Codec ID/Info : UTF-8 Plain Text
Duration : 43 min 32 s
Bit rate : 63 b/s
Count of elements : 425
Stream size : 20.4 KiB (0%)
Language : Ukrainian
Default : No
Forced : No

Text #31
ID : 33
Format : UTF-8
Codec ID : S_TEXT/UTF8
Codec ID/Info : UTF-8 Plain Text
Duration : 43 min 32 s
Bit rate : 54 b/s
Count of elements : 425
Stream size : 17.3 KiB (0%)
Language : Vietnamese
Default : No
Forced : No

Text #32
ID : 34
Format : UTF-8
Codec ID : S_TEXT/UTF8
Codec ID/Info : UTF-8 Plain Text
Duration : 43 min 32 s
Bit rate : 44 b/s
Count of elements : 425
Stream size : 14.2 KiB (0%)
Title : Simplified
Language : Chinese
Default : No
Forced : No

Text #33
ID : 35
Format : UTF-8
Codec ID : S_TEXT/UTF8
Codec ID/Info : UTF-8 Plain Text
Duration : 43 min 32 s
Bit rate : 41 b/s
Count of elements : 425
Stream size : 13.4 KiB (0%)
Title : Traditional
Language : Chinese
Default : No
Forced : No

We have no issue with individuals posting or re-uploading our torrents on a platform we aren't on. However, if this is something you'd like to do, please do so in a 'as-is' format. We ask that you do not create a new torrent, include all descriptions you see above including the SEV logo, tags, notes and screenshots.
If you'd like to become a permanent poster on a website we don't post to, feel free to get in contact with a Sublime Encoded Video member.

We are recruiting/training new members for SEV & seedbox providers as well as people to help out with subtitles.
As you already know, we deliver quality, so you know the standard.
If you're interested, feel free to contact any of the team members.

Comments (0)
 

Write your comment

Did you like this torrent? [Optional]